<svg xmlns="http://www.w3.org/2000/svg">
<defs>
<font id="FontID0" horiz-adv-x="739" font-variant="normal" style="fill-rule:nonzero" font-style="normal" font-weight="400"><font-face font-family="Century Gothic" id="font-face8123"/><missing-glyph id="missing-glyph8127"><path d="M0 0z" id="path8125"/></missing-glyph><glyph unicode="f" horiz-adv-x="313" id="glyph8131"><path d="M295.996 735.335v-66.498c-25.162 10.83-46.83 16.166-64.83 16.166-13.498 0-24.67-2.668-33.5-8.004-8.837-5.335-14.498-11.497-16.665-18.5-2.335-6.995-3.502-25.662-3.502-55.834v-71.667h111.502v-58.994H177.332L176.998 0H109v472.004H39v58.994h70v82.672c0 38.001 3.502 65.164 10.497 81.33 7.003 16.165 19 29.33 35.833 39.168 16.666 9.83 37 14.832 60.837 14.832 22.168 0 48.83-4.502 79.829-13.665z" id="path8129"/></glyph><glyph unicode="t" horiz-adv-x="338" id="glyph8135"><path d="M134.996 728.999h68.007V530.998h108v-58.994h-108V0h-68.007v472.004H42.003v58.994h92.993v198.001z" id="path8133"/></glyph><glyph unicode="c" horiz-adv-x="647" id="glyph8139"><path d="m592.001 420.663-54.167-33.666C490.837 449.001 426.665 480 345.336 480c-65.005 0-119.006-20.835-162-62.33-42.838-41.502-64.34-91.834-64.34-151.17 0-38.668 9.839-75.002 29.673-109.001 19.667-34 46.83-60.495 81.33-79.329 34.332-18.834 73-28.171 115.837-28.171 78.328 0 142.333 30.998 191.998 93.001L592 107.333C566.497 69.165 532.33 39.668 489.502 18.5 446.5-2.502 397.668-12.998 342.834-12.998c-84.33 0-154.172 26.662-209.665 79.829-55.5 53.333-83.172 118.005-83.172 194.332C49.997 312.336 62.995 360 89 403.996c25.837 44.003 61.503 78.336 106.833 103.006 45.496 24.661 96.17 37 152.338 37 35.333 0 69.332-5.336 102.164-16.007 32.665-10.664 60.495-24.662 83.33-41.828C556.667 469 576.001 447.165 592 420.66z" id="path8137"/></glyph><glyph unicode="n" horiz-adv-x="609" id="glyph8143"><path d="M76.002 530.998h67.999v-95.161c27.496 36.334 57.835 63.496 91 81.33 33.332 17.833 69.5 26.837 108.667 26.837 39.836 0 75.169-10.005 106-30.172 30.83-20.168 53.666-47.33 68.331-81.497 14.665-33.999 22.002-87.165 22.002-159.333V0h-67.998v253.001c0 60.995-2.668 101.831-7.837 122.332-8.338 35-23.67 61.337-46.163 79.17C395.5 472.17 366.162 481 330.003 481c-41.503 0-78.67-13.664-111.335-41.002-32.832-27.163-54.5-60.995-64.838-101.331-6.495-26.33-9.83-74.335-9.83-144.167V-.001H76.002v530.999z" id="path8141"/></glyph><glyph unicode="v" horiz-adv-x="554" id="glyph8147"><path d="M26.004 530.998h71.5l178.833-387.664 177.499 387.664h73.159L283.998 0H271L26.002 530.998z" id="path8145"/></glyph><glyph unicode="e" horiz-adv-x="649" id="glyph8151"><path d="m524.336 175.999 57.66-30.33c-19-36.835-40.827-66.665-65.664-89.334-24.836-22.502-52.666-39.836-83.664-51.666-31.164-11.839-66.172-17.667-105.332-17.667-86.999 0-154.839 28.33-203.837 84.998C74.501 128.67 50 192.665 50 263.998c0 67.165 20.834 127.168 62.337 179.667 52.5 66.832 122.999 100.338 211.165 100.338 90.834 0 163.5-34.34 217.668-102.84 38.5-48.33 58.16-108.667 58.827-181.168H119.997C121.331 198.5 141.165 148.168 179.333 109c38.335-39.335 85.665-59.002 141.833-59.002 27.163 0 53.667 4.669 79.337 13.998C426.165 73.334 448 85.664 466 101.163c18 15.5 37.501 40.336 58.336 74.835zm.667 143c-9.171 36.5-22.502 65.497-40.002 87.332-17.667 21.836-40.836 39.335-69.666 52.667-28.838 13.34-59.17 20-90.834 20-52.5 0-97.504-16.665-135.17-50.164-27.664-24.504-48.332-61.004-62.497-109.835h398.17z" id="path8149"/></glyph><glyph unicode="b" horiz-adv-x="682" id="glyph8155"><path d="M80.996 0v736.002h68.007V438.997c28.663 35.166 60.661 61.504 96.161 78.837 35.5 17.5 74.335 26.17 116.504 26.17 75.169 0 139.332-27.17 192.498-81.504 53.167-54.5 79.83-120.331 79.83-198.001 0-76.503-26.83-142-80.497-196.167-53.666-54.167-118.163-81.33-193.665-81.33-43.337 0-82.505 9.163-117.672 27.496-35.166 18.334-66.164 46.005-93.16 83.172V0H80.995zm273.836 53c37.834 0 73 9.337 105 27.83 32.164 18.666 57.668 44.837 76.668 78.503 19 33.499 28.497 69.165 28.497 106.666 0 37.5-9.496 73.334-28.664 107.333-19.167 33.832-44.837 60.336-77.169 79.337-32.332 18.833-66.831 28.33-103.498 28.33-37.167 0-72.667-9.497-106.333-28.33-33.499-19-59.336-44.504-77.336-76.503-18-31.998-26.996-67.998-26.996-108.167 0-61.17 20.168-112.336 60.662-153.33C245.998 73.5 295.663 53 354.833 53z" id="path8153"/></glyph><glyph unicode="s" horiz-adv-x="388" id="glyph8159"><path d="m344.002 473.329-44.004-45.33c-36.5 35.334-72.334 53-107.167 53-22.169 0-41.16-7.337-57.001-22.002-15.833-14.498-23.828-31.664-23.828-51.165 0-17.166 6.494-33.666 19.5-49.165 12.998-15.999 40.494-34.666 82.164-56.168 50.665-26.162 85.165-51.665 103.498-76.002 17.833-24.661 26.837-52.5 26.837-83.33 0-43.67-15.332-80.505-46.004-110.835-30.665-30.164-69-45.33-114.995-45.33-30.673 0-59.837 6.662-87.833 20.001C67.33 20.334 44.337 38.668 26.003 62.171L68.998 111C103.831 71.668 140.998 52 180.168 52c27.329 0 50.665 8.838 69.999 26.337 19.167 17.5 28.83 38.16 28.83 61.83 0 19.5-6.328 36.833-19 52.165-12.832 14.999-41.495 33.833-86.166 56.502-47.997 24.67-80.663 48.998-97.829 73-17.333 24.003-26.004 51.333-26.004 82.164 0 40.168 13.832 73.5 41.336 100.172 27.663 26.495 62.496 39.835 104.666 39.835 48.998 0 98.338-23.503 148.002-70.675z" id="path8157"/></glyph><glyph unicode="N" horiz-adv-x="739" id="glyph8163"><path d="M88 0v718.002h15.498l477.498-549.165v549.165h72V0h-16.332L162.001 544.337V0H88z" id="path8161"/></glyph><glyph unicode="p" horiz-adv-x="682" id="glyph8167"><path d="M77.003 530.998H145v-97.662c26.996 37.167 58.002 64.83 93.168 83.164 35.167 18.333 74.335 27.504 117.663 27.504 75.502 0 140-27.17 193.665-81.338C603.164 408.5 630.002 343.17 630.002 267c0-78.003-26.671-144-79.838-198.5-53.166-54.335-117.33-81.497-192.498-81.497-42.17 0-80.996 8.829-116.504 26.329-35.5 17.666-67.498 43.837-96.161 78.67v-286H77.002v724.997zm273.828-53c-59.161 0-108.834-20.5-149.161-61.662C161.167 375.167 141 324.001 141 262.831c0-40.16 9.004-76.327 27.004-108.334 18-32.165 43.829-57.493 77.328-76.327 33.665-18.834 69.165-28.172 106.333-28.172 36.667 0 71.166 9.505 103.507 28.505 32.331 18.834 57.993 45.33 77.16 79.33 19.168 33.998 28.672 69.665 28.672 106.832 0 37.668-9.504 73.334-28.505 107-19 33.666-44.495 59.836-76.669 78.337-31.998 18.667-67.164 27.996-104.999 27.996z" id="path8165"/></glyph><glyph unicode="m" horiz-adv-x="937" id="glyph8171"><path d="M76.002 530.998h67.999v-91.835c23.836 33.841 48.164 58.67 73.334 74.335 34.5 20.335 70.833 30.506 108.834 30.506 25.828 0 50.165-5.002 73.334-15.174 23.16-9.996 41.995-23.494 56.66-40.16 14.673-16.833 27.338-40.836 38.168-72.167 22.668 41.661 51.165 73.334 85.173 94.994 34.165 21.669 70.833 32.507 110.16 32.507 36.667 0 69.173-9.338 97.17-27.838 28.163-18.5 48.998-44.329 62.663-77.503 13.673-33.165 20.5-82.83 20.5-149.16V0h-69.999v289.67c0 57-4.001 95.994-12.164 117.33-8.17 21.334-22.001 38.5-41.669 51.498C726.497 471.504 703.17 478 675.832 478c-32.999 0-63.33-9.83-90.667-29.33-27.496-19.501-47.497-45.505-60.161-78.003-12.673-32.499-19.001-86.833-19.001-162.834V.002h-68.007V271.67c0 63.996-3.993 107.5-11.997 130.494-7.995 23.002-21.835 41.336-41.67 55.167-19.992 13.84-43.495 20.668-70.832 20.668-31.665 0-61.162-9.496-88.667-28.497-27.496-19-47.83-44.67-60.995-76.836-13.165-32.165-19.834-81.496-19.834-147.836V0H76.002V531z" id="path8169"/></glyph><glyph unicode="g" horiz-adv-x="672" id="glyph8175"><path d="M535 530.998h67.998V108.334c0-74.335-6.494-128.835-19.5-163.335-17.834-48.664-48.832-86.165-93.16-112.503-44.171-26.329-97.338-39.493-159.342-39.493-45.496 0-86.332 6.494-122.666 19.334-36.166 12.997-65.664 30.33-88.5 52.166-22.66 21.66-43.661 53.666-62.828 95.494h74c20.168-35.333 46.164-61.495 78.162-78.495 31.84-17 71.5-25.503 118.672-25.503 46.664 0 85.999 8.67 117.997 25.837 32.165 17.333 55.001 38.993 68.666 64.997 13.664 26.17 20.5 68.332 20.5 126.834v27.33c-25.67-32.5-57.167-57.494-94.335-74.827-37-17.5-76.494-26.171-118.163-26.171-48.83 0-94.669 12.164-137.664 36.334-43.003 24.17-76.169 56.835-99.671 97.662C61.67 174.997 49.999 220.002 49.999 269c0 49.164 12.173 94.836 36.667 137.33 24.337 42.337 58.17 76.003 101.331 100.673 43.17 24.661 88.675 37 136.505 37 39.669 0 76.836-8.17 111.17-24.336 34.332-16.166 67.498-43.17 99.33-81.004v92.334zm-201.836-53c-38.66 0-74.66-9.329-107.834-27.996-33.166-18.667-59.16-44.504-77.995-77.503-18.834-32.999-28.338-68.665-28.338-107.167 0-58.169 19.5-106.166 58.502-144.334 39.002-38.001 89.667-57.001 151.671-57.001 62.83 0 113.328 18.833 151.496 56.5 38.168 37.835 57.335 87.333 57.335 148.837 0 40.002-8.837 75.669-26.337 107-17.5 31.331-42.495 56.168-74.66 74.335-32.173 18.166-66.84 27.329-103.84 27.329z" id="path8173"/></glyph><glyph unicode="x" horiz-adv-x="479" id="glyph8179"><path d="M16 530.998h82.004l140.999-193.999 139.498 193.999h81.496l-180-250.5L484 0h-82.004l-162.66 223.829L78.504 0H-3l201.336 280.164L16 530.998z" id="path8177"/></glyph><glyph horiz-adv-x="276" id="glyph8181"/><glyph unicode="u" horiz-adv-x="607" id="glyph8185"><path d="M66.998 530.998h67.998V283.166c0-60.495 3.335-101.998 9.838-124.833 9.663-32.498 28.497-58.169 56.001-77.003C228.332 62.505 261.33 53 299.498 53s70.5 9.171 97.17 27.497c26.496 18.5 44.996 42.503 55.001 72.5 6.828 20.501 10.33 63.838 10.33 130.17v247.831h70v-260.33c0-73.167-8.497-128.168-25.663-165.169-17-37.167-42.837-66.164-77.17-86.999C394.835-2.5 351.832-12.998 299.999-12.998c-51.833 0-94.994 10.497-129.67 31.498-34.665 20.835-60.66 50.165-77.66 87.666-17.167 37.501-25.67 94.002-25.67 169.337v255.494z" id="path8183"/></glyph><glyph unicode="d" horiz-adv-x="685" id="glyph8189"><path d="M605.999 736.002V0h-67.998v91.334c-28.672-34.833-60.67-61.003-96.337-78.336-35.5-17.333-74.501-25.996-116.663-25.996-75.002 0-139.165 27.163-192.331 81.497C79.504 122.999 53 188.997 53 266.999c0 76.17 26.837 141.5 80.504 195.667 53.5 54.166 117.997 81.338 193.499 81.338 43.495 0 82.83-9.338 118.163-27.838 35.166-18.5 66.164-46.33 92.835-83.498v303.333h67.998zM332.33 477.998c-37.993 0-73.167-9.33-105.166-27.996-32.165-18.5-57.66-44.671-76.66-78.337-19.001-33.666-28.506-69.332-28.506-107 0-37.167 9.505-72.834 28.672-106.833 19.159-34 44.83-60.495 77.16-79.329 32.333-19 66.999-28.505 104-28.505 37.167 0 72.667 9.338 105.999 28.172 33.507 18.834 59.17 44.162 77.17 76.327 18 32.007 27.004 68.174 27.004 108.334 0 61.17-20.168 112.336-60.67 153.505-40.336 41.161-90 61.662-149.003 61.662z" id="path8187"/></glyph><glyph unicode="." horiz-adv-x="276" id="glyph8193"><path d="M151.004 108c16.666 0 30.664-5.836 42.495-17.5 11.672-11.83 17.5-26.004 17.5-43.003 0-16.666-5.828-30.831-17.5-42.662-11.83-11.839-25.829-17.833-42.495-17.833-16.508 0-30.673 5.994-42.503 17.833C96.837 16.665 91 30.831 91 47.497c0 17 5.836 31.173 17.5 43.003 11.83 11.664 25.995 17.5 42.503 17.5z" id="path8191"/></glyph><glyph unicode="é" horiz-adv-x="649" id="glyph8197"><path d="m524.336 175.999 57.66-30.33c-19-36.835-40.827-66.665-65.664-89.334-24.836-22.502-52.666-39.836-83.664-51.666-31.164-11.839-66.172-17.667-105.332-17.667-86.999 0-154.839 28.33-203.837 84.998C74.501 128.67 50 192.665 50 263.998c0 67.165 20.834 127.168 62.337 179.667 52.5 66.832 122.999 100.338 211.165 100.338 90.834 0 163.5-34.34 217.668-102.84 38.5-48.33 58.16-108.667 58.827-181.168H119.997C121.331 198.5 141.165 148.168 179.333 109c38.335-39.335 85.665-59.002 141.833-59.002 27.163 0 53.667 4.669 79.337 13.998C426.165 73.334 448 85.664 466 101.163c18 15.5 37.501 40.336 58.336 74.835zm.667 143c-9.171 36.5-22.502 65.497-40.002 87.332-17.667 21.836-40.836 39.335-69.666 52.667-28.838 13.34-59.17 20-90.834 20-52.5 0-97.504-16.665-135.17-50.164-27.664-24.504-48.332-61.004-62.497-109.835h398.17zM359.167 779.997h104.832L320.332 630.002h-67.331l106.166 149.995z" id="path8195"/></glyph><glyph unicode="r" horiz-adv-x="300" id="glyph8201"><path d="M49.998 530.998h70v-77.661c20.834 30.664 42.836 53.333 66.005 68.332 23.161 14.832 47.33 22.335 72.334 22.335 18.992 0 39.16-6.003 60.662-18l-35.667-57.335c-14.331 6.161-26.329 9.33-36.167 9.33-22.835 0-44.829-9.33-65.997-27.997s-37.334-47.84-48.498-87.166c-8.504-30.172-12.672-91.334-12.672-183.336V0h-70v530.998z" id="path8199"/></glyph><glyph unicode="a" horiz-adv-x="683" id="glyph8205"><path d="M604.999 530.998V0h-67.998v91.334c-28.664-34.833-60.67-61.003-96.337-78.336-35.5-17.333-74.501-25.996-116.663-25.996-75.002 0-139.165 27.163-192.331 81.497C78.504 122.999 52 188.997 52 266.999c0 76.17 26.837 141.5 80.504 195.667 53.5 54.166 117.997 81.338 193.499 81.338 43.495 0 82.83-9.171 118.163-27.505 35.166-18.334 66.164-45.996 92.835-83.164v97.663h67.998zm-273.669-53c-37.993 0-73.16-9.329-105.166-27.996-32.165-18.5-57.66-44.67-76.66-78.337-19.001-33.665-28.506-69.332-28.506-107 0-37.167 9.505-72.834 28.672-106.833 19.167-33.999 44.83-60.495 77.16-79.328 32.333-19 67.007-28.505 104-28.505 37.167 0 72.667 9.337 106.008 28.171 33.499 18.834 59.16 44.162 77.16 76.327 18.001 32.007 27.005 68.174 27.005 108.334 0 61.17-20.167 112.336-60.67 153.505-40.335 41.161-90 61.663-149.003 61.663z" id="path8203"/></glyph><glyph unicode="o" horiz-adv-x="654" id="glyph8209"><path d="M327.836 544.004c81.83 0 149.828-29.505 203.662-88.666 48.998-53.834 73.501-117.672 73.501-191.34 0-74-25.829-138.664-77.67-193.998C475.664 14.665 409-12.997 327.836-12.997c-81.671 0-148.503 27.662-200.168 82.997-51.832 55.334-77.67 119.998-77.67 193.999 0 73.334 24.504 137.006 73.502 190.839 53.833 59.494 121.999 89.166 204.337 89.166zm-.333-67.006c-56.835 0-105.5-20.835-146.335-62.663-40.836-41.836-61.17-92.501-61.17-151.838 0-38.168 9.337-73.834 27.837-107 18.667-32.999 43.83-58.494 75.494-76.494C254.835 61.003 289.669 52 327.503 52s72.667 9.004 104.165 27.004c31.665 18 56.835 43.495 75.502 76.494 18.5 33.166 27.83 68.832 27.83 107 0 59.336-20.502 110.001-61.504 151.838-40.828 41.828-89.5 62.663-145.993 62.663z" id="path8207"/></glyph><glyph unicode="l" horiz-adv-x="200" id="glyph8213"><path d="M65.998 736.002h67.998V0H65.997v736.002z" id="path8211"/></glyph><glyph unicode="i" horiz-adv-x="200" id="glyph8217"><path d="M99.83 749c15.507 0 28.672-5.503 39.668-16.666 11.006-10.997 16.5-24.503 16.5-40.002 0-15.332-5.494-28.663-16.5-39.669-10.996-11.163-24.16-16.666-39.668-16.666-15.332 0-28.33 5.503-39.327 16.666-11.005 11.006-16.5 24.337-16.5 39.669 0 15.499 5.495 29.005 16.5 40.002C71.5 743.497 84.498 749 99.83 749zM65.997 530.998h67.999V0H65.997v530.998z" id="path8215"/></glyph></font><font id="FontID1" horiz-adv-x="705" font-variant="normal" style="fill-rule:nonzero" font-style="normal" font-weight="400"><font-face font-family="CentSchbkCyrill BT" id="font-face8104"/><missing-glyph id="missing-glyph8108"><path d="M0 0z" id="path8106"/></missing-glyph><glyph unicode="€" horiz-adv-x="545" id="glyph8112"><path d="m472.173 253.008 44.835-5.843c-8.835-83.338-32.678-148.504-71.512-195.669-38.835-46.992-88.158-70.503-147.67-70.503-65.165 0-120.818 27.842-166.991 83.669C84.662 120.504 56 195.008 44.835 288H-9.008l16.835 39.008H42c0 5.496-.173 12-.504 19.496-.33 7.496-.488 12.33-.488 14.157 0 4.678.157 9.512.33 14.678.158 5.322.331 10.834.662 16.661h-61.008l18 38h46.835c12.834 95.827 41.18 171.165 85.338 225.827 44 54.835 98 82.173 161.843 82.173 26.662 0 51.654-5.496 74.993-16.33 23.165-11.008 45.007-27.497 65.165-49.67l29.842 62.173h29.166L502 443.01l-38.993-2c-10.834 82.331-29.842 145.165-57.007 188.331-27.166 43.166-60.993 64.662-101.67 64.662-46 0-81.826-22.662-107.668-68-26-45.339-40.489-110.661-43.654-196h239.165l-17.165-38h-224c0-4.835-.174-10.662-.504-17.67-.331-6.834-.504-11.322-.504-13.669 0-1.827.173-6.661.504-14.157.33-7.496.504-14 .504-19.496h195.323l-17.166-39.008H152.001c3.496-84.504 18.662-148.661 45.166-192.331C223.67 51.828 260.663 30 308.175 30c42.661 0 77.826 19.008 105.654 56.835 27.842 38 47.338 93.339 58.346 166.173z" id="path8110"/></glyph><glyph unicode="b" horiz-adv-x="560" id="glyph8116"><path d="M419.008 227.165c0 67.843-9.67 117.496-29.181 149.165-19.323 31.843-49.654 47.67-90.992 47.67-42.173 0-72.504-15.497-91.496-46.662-18.835-31.008-28.331-81.166-28.331-150.173 0-69.67 9.827-120 29.496-151.34 19.827-31.165 51.67-46.818 95.67-46.818 39.653 0 68.834 15.827 87.165 47.653 18.488 31.67 27.67 81.843 27.67 150.504zm-240 180.173c16 24.157 35.496 42 58.33 53.827 22.993 11.842 49.827 17.842 80.489 17.842 59.842 0 108.504-22.834 146-68.346C501.339 365.165 520 305.165 520 231.007c0-73.512-18.661-133.34-56-179.181C426.835 5.999 378.661-17.01 319.827-17.01c-34.33 0-64.661 6.677-91.323 19.843-26.834 13.165-52.677 34.661-77.669 64.173l-45.827-79.181H70.835c5.827 29.338 10 55.338 12.504 77.67 2.488 22.503 3.67 44.33 3.67 65.51V650c0 15.827-3.513 26.504-10.678 31.827-7.165 5.512-21.827 8.173-44 8.173-2.992 0-7.827-.173-14.504-.504-6.661-.33-12-.488-15.827-.488v38.992l177.008 12V407.338z" id="path8114"/></glyph><glyph unicode="a" horiz-adv-x="523" id="glyph8120"><path d="M344 249.008c-74.33-9.843-128.504-24.835-162.331-45.512-33.843-20.488-50.661-48.33-50.661-83.496 0-26.992 6.488-47.165 19.653-60.661C163.827 45.827 183.67 39.008 210 39.008c41.165 0 73.827 12.661 98 38 24 25.496 36 60.819 36 106v66zm5.827-185.181C330.33 39.497 304.504 20 272.173 5.67 240-8.835 206.173-16 170.661-16c-42 0-75.323 10.992-100.33 33.166C45.495 39.339 33.006 69.008 33.006 106c0 47.827 24.158 86.33 72.662 115.496 48.504 29.166 128 52.677 238.33 70.504v47.827c0 36.504-8 61.67-24.172 75.512-16 13.826-43.654 20.661-82.992 20.661-26.331 0-47.827-3.496-64.662-10.504-16.677-6.992-25.008-15.496-25.008-25.67 0-1.495 3.843-8.157 11.843-19.495 8-11.323 12-23.323 12-36.158 0-15.512-4.677-27.842-14-36.834-9.181-8.835-21.843-13.339-37.843-13.339-18.504 0-33.165 5.008-43.496 15.165-10.504 10-15.67 24-15.67 41.843 0 36.819 18 67.323 54 91.653 36 24.174 82.174 36.347 138.836 36.347 64.504 0 111.165-11.512 140-34.677C421.669 421.165 436 383.496 436 331.008v-232c0-15.339 3.166-26.835 9.339-34.504 6.157-7.67 15.496-11.496 27.827-11.496 6.504 0 14.504 2.33 24 6.819 9.496 4.504 15.842 6.834 19.165 6.834 2.835 0 5.496-1.496 8-4.661 2.504-2.992 3.67-6.835 3.67-11.496 0-13.339-9.67-26.677-28.835-40.173C479.827-3.165 458.174-10 434-10c-22.504 0-40.992 6.33-55.496 19.008C364 21.669 354.504 40 349.827 63.827z" id="path8118"/></glyph></font>
</defs>
</svg>
